Ложь и правда отца Александра Меня (Студия православных фильмов во имя Апостола и Евангелиста Иоанна Богослова, Московский отдел СРН)

Ложь и правда отца Александра Меня (Студия православных фильмов во имя Апостола и Евангелиста Иоанна Богослова, Московский отдел СРН)
Название:
Ложь и правда отца Александра Меня (Студия православных фильмов во имя Апостола и Евангелиста Иоанна Богослова, Московский отдел СРН)
Размер:
211.6 MB
30
Скачать
Ложь и правда отца Александра Меня
Год выпуска: 2013
Страна: Россия
Жанр: Православные беседы
Продолжительность: 00:31:25
Перевод: Не требуется
Русские субтитры: нет
Режиссер: Студия православных фильмов во имя Апостола и Евангелиста Иоанна Богослова, Московский отдел СРН
Описание: Во фрагменте вечера Союза Русского Народа Владимир Николаевич Осипов рассказывает о личности сиониста и экумениста протоиерея Александра Меня, подчеркивая сложность его личности. С одной стороны, Мень нанес огромное урон Православной Церкви, ибо его идеи до сих пор дают свои гнилые плоды в среде либерального священства и отравляют неокрепшие души верующих, а с другой стороны - он был убит неизвестными представителями ортодоксального иудаизма за перевод евреев в формальное христианство, что дополнительно создает ему лживый ореол мученика. Печальный факт того, что Святейший Патриарх Кирилл благословил распространение его трудов, говорит о том, что в управляющей верхушке Патриархии еще очень сильна пятая колонна.
Сэмпл: http://www.sendspace.com/file/30jml2
Качество: WebRip
Формат: AVI
Видео: MPEG-4 Visual, 640*480 (4:3), 801 Кбит/сек, 25,000 кадров/сек
Аудио: Русский, MP3, 2 канала, 128 Кбит/сек, 48,0 КГц
MediaInfo
Общее
Полное имя : L:\Monar.ru\Видео\Документальные фильмы\Познавательные фильмы\Ложь и правда отца Александра Меня.avi
Формат : AVI
Формат/Информация : Audio Video Interleave
Размер файла : 212 Мбайт
Продолжительность : 31 м.
Общий поток : 941 Кбит/сек
Видео
Идентификатор : 0
Формат : MPEG-4 Visual
Профиль формата : Simple@L3
Параметр BVOP формата : Нет
Параметр QPel формата : Нет
Параметр GMC формата : Без точки перехода
Параметр матрицы формата : Default (H.263)
Идентификатор кодека : XVID
Идентификатор кодека/Подсказка : XviD
Продолжительность : 31 м.
Битрейт : 801 Кбит/сек
Ширина : 640 пикселей
Высота : 480 пикселей
Соотношение сторон : 4:3
Частота кадров : 25,000 кадров/сек
Цветовое пространство : YUV
Субдискретизация насыщенности : 4:2:0
Битовая глубина : 8 бит
Тип развёртки : Прогрессивная
Метод сжатия : С потерями
Бит/(Пиксели*Кадры) : 0.104
Размер потока : 180 Мбайт (85%)
Библиотека кодирования : XviD 1.2.1 (UTC 2008-12-04)
Аудио
Идентификатор : 1
Формат : MPEG Audio
Версия формата : Version 1
Профиль формата : Layer 3
Режим : Joint stereo
Расширение режима : MS Stereo
Идентификатор кодека : 55
Идентификатор кодека/Подсказка : MP3
Продолжительность : 20 м.
Продолжительность оригинала : 31 м.
Вид битрейта : Постоянный
Битрейт : 128 Кбит/сек
Каналы : 2 канала
Частота : 44,1 КГц
Метод сжатия : С потерями
Размер потока : 28,8 Мбайт (14%)
Выравнивание : Соединение по промежуткам
Продолжительность промежутка : 26 мс. (0,65 видеокадр)
Библиотека кодирования : LAME3.97
Скриншоты