Паисий Святогорец (Александр Куприн)

Паисий Святогорец (Александр Куприн)
Название:
Паисий Святогорец (Александр Куприн)
Размер:
3.9 GB
33
Скачать
Паисий Святогорец
Год выпуска: 2012-2013
Страна: Россия
Жанр: Православные святые
Продолжительность: 00:51:13 + 00:51:15 + 00:51:30 + 00:51:34 + 00:52:29 + 00:51:19
Перевод: Профессиональный (многоголосый, закадровый) - за исключением голоса ведущего
Русские субтитры: нет
Режиссер: А. Куприн
Описание: Шестисерийный фильм основан на книге жития блаженной памяти Старца Паисия Святогорца, воспоминаниях и свидетельствах его духовных чад, соотечественников, родных, духовенства и мирян. Фильм снимался в местах земной жизни Старца Паисия - на Святой Горе Афон, в огородах материковой Греции, на острове Керкера.
Фильм первый посвящен началу земного пути Старца Паисия Святогорца - рождению в селении Фарасы, крещению преподобным Арсением Каппадокийским, детству и юности в горах Коницы, службе в армии во время гражданской и Великой Отечественной войны. О Старце Паисии рассказывают: игумен Ефрем Ватопедский, брат Старца Паисия Рафаил Эзнепидис ; сослуживец старца Паисия, ныне-монах Арсений; писатели Афанасий Раковалис и Лазарь Келекиди и другие.
Фильм второй посвящен началу монашеского пути Старца Паисия Святогорца - первому посещению Афона, принятию пострига и восстановлению обители Стомион ради исполнения обета, данного им в юности Пресвятой Богородице. О Старце Паисии рассказывают: митрополит Лимассольский Афанасий, сослуживец старца Паисия, ныне - монах Арсений ; писатель Лазарь Келекиди, родственники Старца Паисия, жители г.Коницы, настоятель обители Стомион архимандрит Косьма и другие.
Фильм третий посвящен пребыванию Старца Паисия на Синае, в монастыре святой Екатерины, аскетирии святых Галактиона и Епистимии, его подвигу безмолвия и отшельничества, духовной борьбе и особой любви к ближним - бедуинам, насельникам монастыря, паломникам. О Старце Паисии рассказывают: игумен монастыря святой Екатерины епископ Синайский Дамиан, насельник монастыря святой Екатерины монах Павел и другие.
Фильм четвертый посвящен возвращению Старца Паисия на Афон, где он стал послушником русского старца Тихона, его отшельнической жизни в кал иве Честного Креста и переходу в монастырь Ставроникита для восстановления монашеской жизни братии. О Старце Паисии рассказывают: игумен монастыря Предтечи Господня Иоанна в Пиерии архимандрит Порфирий, митрополит Черногорский и Приморский Амфилохий и другие.
Фильм пятый посвящен пребыванию Старца Паисия в Афонской келлии Панагуда, расцвету его духовной жизни. «С того момента, как вставало солнце, и до самого заката, шли потоки людей всякого рода - бедные и богатые, образованные и неграмотные, полицейские, военные, сенаторы, епископы и патриархи, анархисты и революционеры - всякие люди шли. И со всеми этими людьми Старец находил общий язык...» Писатель Афанасий Раковалис.
Фильм шестой посвящен последним годам земной жизни Старца Паисия, когда он был вынужден покинуть Афон и оставаться на материке. В это время Старец Паисий основал женские и мужской монастыри в окрестностях Салоник, духовным наставлением и теплой молитвой утешал и исцелял множество людей, неся мученический крест тяжелой болезни. О старце Паисии рассказывают: лечащий врач Георгий Блан-Дзас, митрополит Месогейский и Лавреотикийский Николай и многие другие.
Доп. информация: Рипы сделаны с этих исходников (без заставки и конечной тишины): http://rutracker.org/forum/viewtopic.php?t=4446529
Сэмпл: http://multi-up.com/868457
Качество: DVDRip
Формат: AVI
Видео: 720*400 (16:9), в 25,000 кадров/сек, MPEG-4 Visual (XviD) (Сжатый битовый поток) (Advanced Simple@L5) (BVOP1)
Аудио: Русский, 160 Кбит/сек, 48,0 КГц, 2 канала, MPEG Audio (MP3) (Version 1) (Layer 3) (Joint stereo / MS Stereo)
Битрейты, скриншоты и отчёты
Фильм 1. Рождение. Детство. Молодость
1641 Кбит/сек
Media Info
Формат : AVI
Формат/Информация : Audio Video Interleave
Размер файла : 664 Мбайт
Продолжительность : 51 м.
Общий поток : 1814 Кбит/сек
Название фильма : Фильм 1. Рождение. Детство. Молодость
Программа кодирования : MEncoder SVN-r35468-4.6.1
Библиотека кодирования : MPlayer
Примечание : DVDRip by andrejpushkaryov
Видео
Идентификатор : 0
Формат : MPEG-4 Visual
Профиль формата : Advanced Simple@L5
Параметр BVOP формата : 1
Параметр QPel формата : Нет
Параметр GMC формата : Без точки перехода
Параметр матрицы формата : Default (H.263)
Режим смешивания : Сжатый битовый поток
Идентификатор кодека : XVID
Идентификатор кодека/Подсказка : XviD
Продолжительность : 51 м.
Битрейт : 1641 Кбит/сек
Ширина : 720 пикселей
Высота : 400 пикселей
Соотношение сторон : 16:9
Частота кадров : 25,000 кадров/сек
Цветовое пространство : YUV
Субдискретизация насыщенности : 4:2:0
Битовая глубина : 8 бит
Тип развёртки : Прогрессивная
Метод сжатия : С потерями
Бит/(Пиксели*Кадры) : 0.228
Размер потока : 601 Мбайт (90%)
Библиотека кодирования : XviD 64
Аудио
Идентификатор : 1
Формат : MPEG Audio
Версия формата : Version 1
Профиль формата : Layer 3
Режим : Joint stereo
Расширение режима : MS Stereo
Идентификатор кодека : 55
Идентификатор кодека/Подсказка : MP3
Продолжительность : 51 м.
Вид битрейта : Постоянный
Битрейт : 160 Кбит/сек
Каналы : 2 канала
Частота : 48,0 КГц
Метод сжатия : С потерями
Задержка видео : 40 мс.
Размер потока : 58,6 Мбайт (9%)
Выравнивание : Соединение по промежуткам
Продолжительность промежутка : 24 мс. (0,60 видеокадр)
Время предзагрузки промежутка : 504 мс.
Библиотека кодирования : LAME3.98.4
Фильм 2. Начало монашеского пути
1641 Кбит/сек
Media Info
Формат : AVI
Формат/Информация : Audio Video Interleave
Размер файла : 665 Мбайт
Продолжительность : 51 м.
Общий поток : 1814 Кбит/сек
Название фильма : Фильм 2. Начало монашеского пути
Программа кодирования : MEncoder SVN-r35468-4.6.1
Библиотека кодирования : MPlayer
Примечание : DVDRip by andrejpushkaryov
Видео
Идентификатор : 0
Формат : MPEG-4 Visual
Профиль формата : Advanced Simple@L5
Параметр BVOP формата : 1
Параметр QPel формата : Нет
Параметр GMC формата : Без точки перехода
Параметр матрицы формата : Default (H.263)
Режим смешивания : Сжатый битовый поток
Идентификатор кодека : XVID
Идентификатор кодека/Подсказка : XviD
Продолжительность : 51 м.
Битрейт : 1641 Кбит/сек
Ширина : 720 пикселей
Высота : 400 пикселей
Соотношение сторон : 16:9
Частота кадров : 25,000 кадров/сек
Цветовое пространство : YUV
Субдискретизация насыщенности : 4:2:0
Битовая глубина : 8 бит
Тип развёртки : Прогрессивная
Метод сжатия : С потерями
Бит/(Пиксели*Кадры) : 0.228
Размер потока : 602 Мбайт (90%)
Библиотека кодирования : XviD 64
Аудио
Идентификатор : 1
Формат : MPEG Audio
Версия формата : Version 1
Профиль формата : Layer 3
Режим : Joint stereo
Расширение режима : MS Stereo
Идентификатор кодека : 55
Идентификатор кодека/Подсказка : MP3
Продолжительность : 51 м.
Вид битрейта : Постоянный
Битрейт : 160 Кбит/сек
Каналы : 2 канала
Частота : 48,0 КГц
Метод сжатия : С потерями
Задержка видео : 40 мс.
Размер потока : 58,7 Мбайт (9%)
Выравнивание : Соединение по промежуткам
Продолжительность промежутка : 24 мс. (0,60 видеокадр)
Время предзагрузки промежутка : 504 мс.
Библиотека кодирования : LAME3.98.4
Фильм 3. Синайский отшельник
1585 Кбит/сек
Media Info
Формат : AVI
Формат/Информация : Audio Video Interleave
Размер файла : 648 Мбайт
Продолжительность : 51 м.
Общий поток : 1758 Кбит/сек
Название фильма : Фильм 3. Синайский отшельник
Программа кодирования : MEncoder SVN-r35468-4.6.1
Библиотека кодирования : MPlayer
Примечание : DVDRip by andrejpushkaryov
Видео
Идентификатор : 0
Формат : MPEG-4 Visual
Профиль формата : Advanced Simple@L5
Параметр BVOP формата : 1
Параметр QPel формата : Нет
Параметр GMC формата : Без точки перехода
Параметр матрицы формата : Default (H.263)
Режим смешивания : Сжатый битовый поток
Идентификатор кодека : XVID
Идентификатор кодека/Подсказка : XviD
Продолжительность : 51 м.
Битрейт : 1585 Кбит/сек
Ширина : 720 пикселей
Высота : 400 пикселей
Соотношение сторон : 16:9
Частота кадров : 25,000 кадров/сек
Цветовое пространство : YUV
Субдискретизация насыщенности : 4:2:0
Битовая глубина : 8 бит
Тип развёртки : Прогрессивная
Метод сжатия : С потерями
Бит/(Пиксели*Кадры) : 0.220
Размер потока : 584 Мбайт (90%)
Библиотека кодирования : XviD 64
Аудио
Идентификатор : 1
Формат : MPEG Audio
Версия формата : Version 1
Профиль формата : Layer 3
Режим : Joint stereo
Расширение режима : MS Stereo
Идентификатор кодека : 55
Идентификатор кодека/Подсказка : MP3
Продолжительность : 51 м.
Вид битрейта : Постоянный
Битрейт : 160 Кбит/сек
Каналы : 2 канала
Частота : 48,0 КГц
Метод сжатия : С потерями
Задержка видео : 40 мс.
Размер потока : 59,0 Мбайт (9%)
Выравнивание : Соединение по промежуткам
Продолжительность промежутка : 24 мс. (0,60 видеокадр)
Время предзагрузки промежутка : 504 мс.
Библиотека кодирования : LAME3.98.4
Фильм 4. Возвращение на Афон
1631 Кбит/сек
Media Info
Формат : AVI
Формат/Информация : Audio Video Interleave
Размер файла : 666 Мбайт
Продолжительность : 51 м.
Общий поток : 1804 Кбит/сек
Название фильма : Фильм 4.Возвращение на Афон
Программа кодирования : MEncoder SVN-r35468-4.6.1
Библиотека кодирования : MPlayer
Примечание : DVDRip by andrejpushkaryov
Видео
Идентификатор : 0
Формат : MPEG-4 Visual
Профиль формата : Advanced Simple@L5
Параметр BVOP формата : 1
Параметр QPel формата : Нет
Параметр GMC формата : Без точки перехода
Параметр матрицы формата : Default (H.263)
Режим смешивания : Сжатый битовый поток
Идентификатор кодека : XVID
Идентификатор кодека/Подсказка : XviD
Продолжительность : 51 м.
Битрейт : 1631 Кбит/сек
Ширина : 720 пикселей
Высота : 400 пикселей
Соотношение сторон : 16:9
Частота кадров : 25,000 кадров/сек
Цветовое пространство : YUV
Субдискретизация насыщенности : 4:2:0
Битовая глубина : 8 бит
Тип развёртки : Прогрессивная
Метод сжатия : С потерями
Бит/(Пиксели*Кадры) : 0.227
Размер потока : 602 Мбайт (90%)
Библиотека кодирования : XviD 64
Аудио
Идентификатор : 1
Формат : MPEG Audio
Версия формата : Version 1
Профиль формата : Layer 3
Режим : Joint stereo
Расширение режима : MS Stereo
Идентификатор кодека : 55
Идентификатор кодека/Подсказка : MP3
Продолжительность : 51 м.
Вид битрейта : Постоянный
Битрейт : 160 Кбит/сек
Каналы : 2 канала
Частота : 48,0 КГц
Метод сжатия : С потерями
Задержка видео : 40 мс.
Размер потока : 59,0 Мбайт (9%)
Выравнивание : Соединение по промежуткам
Продолжительность промежутка : 24 мс. (0,60 видеокадр)
Время предзагрузки промежутка : 504 мс.
Библиотека кодирования : LAME3.98.4
Фильм 5. Панагуда
1641 Кбит/сек
Media Info
Формат : AVI
Формат/Информация : Audio Video Interleave
Размер файла : 681 Мбайт
Продолжительность : 52 м.
Общий поток : 1813 Кбит/сек
Название фильма : Фильм 5. Панагуда
Программа кодирования : MEncoder SVN-r35468-4.6.1
Библиотека кодирования : MPlayer
Примечание : DVDRip by andrejpushkaryov
Видео
Идентификатор : 0
Формат : MPEG-4 Visual
Профиль формата : Advanced Simple@L5
Параметр BVOP формата : 1
Параметр QPel формата : Нет
Параметр GMC формата : Без точки перехода
Параметр матрицы формата : Default (H.263)
Режим смешивания : Сжатый битовый поток
Идентификатор кодека : XVID
Идентификатор кодека/Подсказка : XviD
Продолжительность : 52 м.
Битрейт : 1641 Кбит/сек
Ширина : 720 пикселей
Высота : 400 пикселей
Соотношение сторон : 16:9
Частота кадров : 25,000 кадров/сек
Цветовое пространство : YUV
Субдискретизация насыщенности : 4:2:0
Битовая глубина : 8 бит
Тип развёртки : Прогрессивная
Метод сжатия : С потерями
Бит/(Пиксели*Кадры) : 0.228
Размер потока : 616 Мбайт (90%)
Библиотека кодирования : XviD 64
Аудио
Идентификатор : 1
Формат : MPEG Audio
Версия формата : Version 1
Профиль формата : Layer 3
Режим : Joint stereo
Расширение режима : MS Stereo
Идентификатор кодека : 55
Идентификатор кодека/Подсказка : MP3
Продолжительность : 52 м.
Вид битрейта : Постоянный
Битрейт : 160 Кбит/сек
Каналы : 2 канала
Частота : 48,0 КГц
Метод сжатия : С потерями
Задержка видео : 40 мс.
Размер потока : 60,1 Мбайт (9%)
Выравнивание : Соединение по промежуткам
Продолжительность промежутка : 24 мс. (0,60 видеокадр)
Время предзагрузки промежутка : 504 мс.
Библиотека кодирования : LAME3.98.4
Фильм 6. Последние годы жизни
1640 Кбит/сек
Media Info
Формат : AVI
Формат/Информация : Audio Video Interleave
Размер файла : 666 Мбайт
Продолжительность : 51 м.
Общий поток : 1813 Кбит/сек
Название фильма : Фильм 6.Последние годы жизни
Программа кодирования : MEncoder SVN-r35468-4.6.1
Библиотека кодирования : MPlayer
Примечание : DVDRip by andrejpushkaryov
Видео
Идентификатор : 0
Формат : MPEG-4 Visual
Профиль формата : Advanced Simple@L5
Параметр BVOP формата : 1
Параметр QPel формата : Нет
Параметр GMC формата : Без точки перехода
Параметр матрицы формата : Default (H.263)
Режим смешивания : Сжатый битовый поток
Идентификатор кодека : XVID
Идентификатор кодека/Подсказка : XviD
Продолжительность : 51 м.
Битрейт : 1640 Кбит/сек
Ширина : 720 пикселей
Высота : 400 пикселей
Соотношение сторон : 16:9
Частота кадров : 25,000 кадров/сек
Цветовое пространство : YUV
Субдискретизация насыщенности : 4:2:0
Битовая глубина : 8 бит
Тип развёртки : Прогрессивная
Метод сжатия : С потерями
Бит/(Пиксели*Кадры) : 0.228
Размер потока : 602 Мбайт (90%)
Библиотека кодирования : XviD 64
Аудио
Идентификатор : 1
Формат : MPEG Audio
Версия формата : Version 1
Профиль формата : Layer 3
Режим : Joint stereo
Расширение режима : MS Stereo
Идентификатор кодека : 55
Идентификатор кодека/Подсказка : MP3
Продолжительность : 51 м.
Вид битрейта : Постоянный
Битрейт : 160 Кбит/сек
Каналы : 2 канала
Частота : 48,0 КГц
Метод сжатия : С потерями
Задержка видео : 40 мс.
Размер потока : 58,7 Мбайт (9%)
Выравнивание : Соединение по промежуткам
Продолжительность промежутка : 24 мс. (0,60 видеокадр)
Время предзагрузки промежутка : 504 мс.
Библиотека кодирования : LAME3.98.4
29.05.13 Торрент-файл перезалит. Добавлены рипы на оставшиеся три серии.