Осипов А.И. Вопросы и ответы о смысле жизни (2006, Шереметьево - Карго)

Осипов А.И. Вопросы и ответы о смысле жизни (2006, Шереметьево - Карго)
Название:
Осипов А.И. Вопросы и ответы о смысле жизни (2006, Шереметьево - Карго)
Размер:
4.03 GB
34
Скачать
Осипов А.И. Вопросы и ответы о смысле жизни (2006, Шереметьево - Карго)
Дата/Год выпуска: 2006.09.23
Страна: Россия
Жанр: Православная лекция
Продолжительность: 01.31.24
Перевод: Не требуется
Русские субтитры: нет
Оригинальная аудиодорожка: русский
Описание: Лекция профессора МДА Осипова А.И
Доп. информация: Алексей Ильич Осипов - крупный православный катехизатор и апологет современности, педагог и публицист. Заслуженный профессор Московской духовной академии, доктор богословия. Член Президиума Межсоборного присутствия Русской Православной Церкви. Академик РАЕН.
Из обращения А. И. Осипова к посетителям его официального сайта:
"Основная задача публикуемых здесь материалов – обратить внимание современного человека, как верующего, так и неверующего, на вопрос о смысле жизни, и прежде всего на главный вопрос: есть ли Бог и бессмертие человеческой личности или вечная смерть ожидает ее? Наибольшее внимание при этом отводится вопросам духовной жизни, поскольку лишь она способна спасти современного человека от катастрофически нарастающего потока бездуховности в мире.
Сейчас особую остроту приобретает борьба между двумя взаимоисключающими процессами: воцерковлением мира и омiрщением Церкви. Силы омiрщения, как всегда, сплочены, и в связи с небывалым развитием информационных технологий получили особенно широкие возможности эффективно использовать своё мощное оружие поражения: сластолюбие, сребролюбие, славолюбие (авва Дорофей). Мечи и стрелы их не щадят никого, не взирая ни на ученые степени и звания, ни на священный сан, ни на положение в Церкви. Поэтому омiрщение с большой силой проникает в сознание, деятельность и духовную жизнь самих верующих.
Оружие Церкви иное. Как писал в середине 19-го века святитель Игнатий (Брянчанинов): «Для овец оружие волков неестественно. Овцы покоряли волков любовью и кротостью, а если в дело пошли зубы, то овцам не устоять, особенно при нынешнем охлаждении мирян к религии, а паче к духовенству». Эта мысль насколько верна, настолько и трудно исполнима. Ибо для воцерковления мира она требует от верующего не обычного оружия внешней деятельности, но прежде всего внутреннего подвига борьбы со своими страстями, жизни по Евангелию. Лишь такой „деятельностью“ приобретаются любовь и кротость – это непобедимое оружие Христа. Только им можно противостоять омiрщению и воцерковлять мир. Но кто кого в этот раз победит?"
качество: HDRip
формат: MPG
Видео: MPEG 2, 720x576 (16:9), 25.000 fps, 6 000 Kbps (0.579 bit/pixel)
Аудио: MP2, 48.0 KHz, 2 ch, 224 Kbps, CBR
MediaInfo
Формат : MPEG-PS
Размер файла : 4,03 Гбайт
Продолжительность : 1 ч. 31 м.
Общий поток : 6311 Кбит/сек
Библиотека кодирования : (c) 1998-2011 Womble Multimedia, Inc. / MPEG Video Wizard DVD 5.0.1.100 (03/2011) / Sep 2 2011
Видео
Идентификатор : 224 (0xE0)
Формат : MPEG Video
Версия формата : Version 2
Профиль формата : Main@Main
Параметр BVOP формата : Да
Параметр матрицы формата : Выборочная
Параметр GOP формата : Variable
Продолжительность : 1 ч. 31 м.
Битрейт : 6000 Кбит/сек
Ширина : 720 пикселей
Высота : 576 пикселей
Соотношение сторон : 16:9
Частота кадров : 25,000 кадров/сек
Стандарт вещания : PAL
Цветовое пространство : YUV
Субдискретизация насыщенности : 4:2:0
Битовая глубина : 8 бит
Тип развёртки : Чересстрочная
Порядок развёртки : Верхнее поле первое
Метод сжатия : С потерями
Бит/(Пиксели*Кадры) : 0.579
Временной код первого кадра : 00:00:00:00
Оригинал временного кода : Group of pictures header
Размер потока : 3,81 Гбайт (94%)
Библиотека кодирования : (c) 1998-2011 Womble Multimedia, Inc. / MPEG Video Wizard DVD 5.0.1.100 (03/2011) / Sep 2 2011
Аудио
Идентификатор : 192 (0xC0)
Формат : MPEG Audio
Версия формата : Version 1
Профиль формата : Layer 2
Режим : Dual mono
Продолжительность : 1 ч. 31 м.
Вид битрейта : Постоянный
Битрейт : 224 Кбит/сек
Каналы : 2 канала
Частота : 48,0 КГц
Метод сжатия : С потерями
Размер потока : 146 Мбайт (4%)
Скриншоты