Верую с Жанной Бичевской (Елена Козенкова)

Верую с Жанной Бичевской (Елена Козенкова)
Название:
Верую с Жанной Бичевской (Елена Козенкова)
Размер:
679.7 MB
34
Скачать
Верую с Жанной Бичевской
Год выпуска: 2013
Страна: Россия
Жанр: Православные беседы
Продолжительность: 00:59:41
Перевод: Не требуется
Русские субтитры: нет
Режиссер: Е. Козенкова
Описание: Режиссер православного кино Елена Козенкова берет интервью у народной артистки Жанны Бичевской о ее жизненном и творческом пути.
Сэмпл: http://www.sendspace.com/file/kehdk1
Качество: DVDRip
Формат: AVI
Видео: 1448 Кбит/сек, 704*384 (1,85:1), 25,000 кадров/сек, XviD
Аудио: Русский, 128 Кбит/сек, 44,1 КГц, 2 канала, MP3
MediaInfo
Общее
Полное имя : F:\MONAR.RU\Видео\Познавательные фильмы\Верую с Жанной Бичевской.avi
Формат : AVI
Формат/Информация : Audio Video Interleave
Размер файла : 680 Мбайт
Продолжительность : 59 м.
Общий поток : 1589 Кбит/сек
Видео
Идентификатор : 0
Формат : MPEG-4 Visual
Профиль формата : Advanced Simple@L5
Параметр BVOP формата : 2
Параметр QPel формата : Нет
Параметр GMC формата : Без точки перехода
Параметр матрицы формата : Выборочная
Идентификатор кодека : XVID
Идентификатор кодека/Подсказка : XviD
Продолжительность : 59 м.
Битрейт : 1448 Кбит/сек
Ширина : 704 пикселя
Высота : 384 пикселя
Соотношение сторон : 1,85:1
Частота кадров : 25,000 кадров/сек
Цветовое пространство : YUV
Субдискретизация насыщенности : 4:2:0
Битовая глубина : 8 бит
Тип развёртки : Прогрессивная
Метод сжатия : С потерями
Бит/(Пиксели*Кадры) : 0.214
Размер потока : 619 Мбайт (91%)
Библиотека кодирования : XviD 1.2.1 (UTC 2008-12-04)
Аудио
Идентификатор : 1
Формат : MPEG Audio
Версия формата : Version 1
Профиль формата : Layer 3
Идентификатор кодека : 55
Идентификатор кодека/Подсказка : MP3
Продолжительность : 59 м.
Продолжительность оригинала : 59 м.
Вид битрейта : Постоянный
Битрейт : 128 Кбит/сек
Каналы : 2 канала
Частота : 48,0 КГц
Метод сжатия : С потерями
Размер потока : 54,7 Мбайт (8%)
Выравнивание : Разделение по промежуткам
Продолжительность промежутка : 24 мс. (0,60 видеокадр)
Скриншоты
06.06.14 Торрент-файл перезалит. Раздача заменена с сатрипа на двдрип.
Похожие файлы