Беседы о семье. Выпуск 9. Ирина Медведева - Новая угроза семье и детям (ООО "Риза")

Беседы о семье. Выпуск 9. Ирина Медведева - Новая угроза семье и детям (ООО "Риза")
Название:
Беседы о семье. Выпуск 9. Ирина Медведева - Новая угроза семье и детям (ООО "Риза")
Размер:
689.1 MB
30
Скачать
Беседы о семье. Выпуск 9. Ирина Медведева - Новая угроза семье и детям
Год выпуска: 2011
Страна: Россия
Жанр: Православные беседы
Продолжительность: 01:18:34
Перевод: Не требуется
Русские субтитры: нет
Режиссер: ООО "Риза"
Описание: Ирина Яковлевна говорит об опасности ювенальной юстиции для семьи и о новых методах внедрения ее в России.
Записи бесед проводятся при поддержке и непосредственном участии Центра «Православная семья» и ООО «Риза» в Издательском Совете Русской Православной Церкви.
Доп. информация: Рип сделан с этого исходника (без рекламы): http://rutracker.org/forum/viewtopic.php?t=4210026
Качество: DVDRip
Формат: AVI
Видео кодек: XviD
Аудио кодек: MP3
Видео: 1089 Кбит/сек, 720*424 (1,698), в 25,000 кадров/сек, MPEG-4 Visual (XviD) (Advanced Simple@L5) (BVOP2)
Аудио: Русский, 128 Кбит/сек, 48,0 КГц, 2 канала, MPEG Audio (MP3) (Version 1) (Layer 3)
Media Info
Формат : AVI
Формат/Информация : Audio Video Interleave
Размер файла : 689 Мбайт
Продолжительность : 1 ч. 18 м.
Общий поток : 1226 Кбит/сек
Программа кодирования : VirtualDubMod 1.5.10.3 | www.virtualdub-fr.org || (build 2550/release)
Библиотека кодирования : VirtualDubMod build 2550/release
Видео
Идентификатор : 0
Формат : MPEG-4 Visual
Профиль формата : Advanced Simple@L5
Параметр BVOP формата : 2
Параметр QPel формата : Нет
Параметр GMC формата : Без точки перехода
Параметр матрицы формата : Default (H.263)
Идентификатор кодека : XVID
Идентификатор кодека/Подсказка : XviD
Продолжительность : 1 ч. 18 м.
Битрейт : 1089 Кбит/сек
Ширина : 720 пикселей
Высота : 424 пикселя
Соотношение сторон : 1,698
Частота кадров : 25,000 кадров/сек
Цветовое пространство : YUV
Субдискретизация насыщенности : 4:2:0
Битовая глубина : 8 бит
Тип развёртки : Прогрессивная
Метод сжатия : С потерями
Бит/(Пиксели*Кадры) : 0.143
Размер потока : 612 Мбайт (89%)
Библиотека кодирования : XviD 1.2.1 (UTC 2008-12-04)
Аудио
Идентификатор : 1
Формат : MPEG Audio
Версия формата : Version 1
Профиль формата : Layer 3
Идентификатор кодека : 55
Идентификатор кодека/Подсказка : MP3
Продолжительность : 1 ч. 18 м.
Вид битрейта : Постоянный
Битрейт : 128 Кбит/сек
Каналы : 2 канала
Частота : 48,0 КГц
Метод сжатия : С потерями
Размер потока : 71,9 Мбайт (10%)
Выравнивание : Соединение по промежуткам
Продолжительность промежутка : 40 мс. (1,00 видеокадр)
Время предзагрузки промежутка : 504 мс.
Библиотека кодирования : LAME3.99
Настройки программы : -m s -V 4 -q 2 -lowpass 17 -b 128
Скриншоты