400-летие Дома Романовых. День непримиримости с революцией (Студия православных фильмов во имя Апостола и Евангелиста Иоанна Богослова, Московский отдел СРН)

400-летие Дома Романовых. День непримиримости с революцией (Студия православных фильмов во имя Апостола и Евангелиста Иоанна Богослова, Московский отдел СРН)
Название:
400-летие Дома Романовых. День непримиримости с революцией (Студия православных фильмов во имя Апостола и Евангелиста Иоанна Богослова, Московский отдел СРН)
Размер:
441.7 MB
30
Скачать
400-летие Дома Романовых. День непримиримости с революцией
Год выпуска: 2013
Страна: Россия
Жанр: Православные беседы
Продолжительность: 00:42:04
Перевод: Не требуется
Русские субтитры: нет
Режиссер: Студия православных фильмов во имя Апостола и Евангелиста Иоанна Богослова, Московский отдел СРН
Описание: Во фрагменте вечера Союза Русского Народа Владимир Николаевич Осипов зачитывает несколько обращений, в которых высказывается полное несогласие с церковной реформой Архиерейского Собора, фактически упраздняющей большинство функций Поместного Собора.
Сэмпл: http://www.sendspace.com/file/l6jiry
Качество: SATRip
Формат: AVI
Видео: MPEG-4 Visual, 640*480 (4:3), 1328 Кбит/сек, 25,000 кадров/сек
Аудио: Русский, MP3, 2 канала, 128 Кбит/сек, 48,0 КГц
MediaInfo
Общее
Полное имя : L:\Monar.ru\Видео\Документальные фильмы\Познавательные фильмы\400-летие Дома Романовых. День непримиримости с революцией.avi
Формат : AVI
Формат/Информация : Audio Video Interleave
Размер файла : 442 Мбайт
Продолжительность : 42 м.
Общий поток : 1468 Кбит/сек
Видео
Идентификатор : 0
Формат : MPEG-4 Visual
Профиль формата : Simple@L3
Параметр BVOP формата : Нет
Параметр QPel формата : Нет
Параметр GMC формата : Без точки перехода
Параметр матрицы формата : Default (H.263)
Идентификатор кодека : XVID
Идентификатор кодека/Подсказка : XviD
Продолжительность : 42 м.
Битрейт : 1328 Кбит/сек
Ширина : 640 пикселей
Высота : 480 пикселей
Соотношение сторон : 4:3
Частота кадров : 25,000 кадров/сек
Цветовое пространство : YUV
Субдискретизация насыщенности : 4:2:0
Битовая глубина : 8 бит
Тип развёртки : Прогрессивная
Метод сжатия : С потерями
Бит/(Пиксели*Кадры) : 0.173
Размер потока : 400 Мбайт (90%)
Библиотека кодирования : XviD 1.2.1 (UTC 2008-12-04)
Аудио
Идентификатор : 1
Формат : MPEG Audio
Версия формата : Version 1
Профиль формата : Layer 3
Режим : Joint stereo
Расширение режима : MS Stereo
Идентификатор кодека : 55
Идентификатор кодека/Подсказка : MP3
Продолжительность : 27 м.
Продолжительность оригинала : 42 м.
Вид битрейта : Постоянный
Битрейт : 128 Кбит/сек
Каналы : 2 канала
Частота : 44,1 КГц
Метод сжатия : С потерями
Размер потока : 38,5 Мбайт (9%)
Выравнивание : Соединение по промежуткам
Продолжительность промежутка : 26 мс. (0,65 видеокадр)
Скриншоты