Миротворец. Святой Даниил Московский (Сергей Дубинкин)

Миротворец. Святой Даниил Московский (Сергей Дубинкин)
Название:
Миротворец. Святой Даниил Московский (Сергей Дубинкин)
Размер:
2.84 GB
30
Скачать
Миротворец. Святой Даниил Московский
Год выпуска: 2013
Страна: Россия
Жанр: Православные святые
Продолжительность: 00:39:00
Перевод: Не требуется
Русские субтитры: нет
Оригинальная аудиодорожка: русский
Режиссер: С. Дубинкин
Описание: XIII век. Владимирская Русь, уже покоренная Ордой, раздираемая междоусобными войнами и крестовыми походами латинского Запада, стоит на краю пропасти, на последней грани своего исторического бытия...
Но отечественной истории суждено было продолжить свою летопись благодаря славным делам и военному таланту Великого Князя Александра Невского. А его сын, князь Даниил Московский, положил начало объединению удельных княжеств в единое российское государство и освобождению русских земель.
Через 30 лет своего правления князь Даниил оставил после себя одно из самых больших и населенных удельных княжеств на Руси - с перестроенной Москвой, воздвигнутыми монастырями и храмами. И все это в самый трудный период монголо-татарского ига.
Сэмпл: https://www.sendspace.com/file/30ts6j
Качество: DVD5
Формат: DVD Video
Видео: 6663 Кбит/сек, 720*576 (16:9), в 25,000 кадров/сек, MPEG2
Аудио: Русский, 1536 Кбит/сек, 48,0 КГц, 2 канала, PCM
Скриншоты меню
DVDInfo
Title: Data2
Size: 2.84 Gb ( 2 978 484 KBytes ) - DVD-5
Enabled regions: 1, 2, 3, 4, 5, 6, 7, 8
VTS_01 :
Play Length: 00:39:00
Video: PAL 16:9 (720x576) VBR, Auto Pan&Scan
Audio:
Not specified (LinearPCM, 2 ch)
VTS_02 :
Play Length: 00:03:06
Video: PAL 16:9 (720x576) VBR, Auto Pan&Scan
Audio:
Russian (LinearPCM, 2 ch)
VTS_03 :
Play Length: 00:02:33
Video: PAL 16:9 (720x576) VBR, Auto Pan&Scan
Audio:
Russian (LinearPCM, 2 ch)
Menu Video:
PAL 4:3 (720x576) VBR
Menu Subtitles:
Not specified
Menu English Language Unit :
Root Menu
MediaInfo
Общее
Полное имя : F:\MONAR.RU\Видео\Святые Вселенского Православия\Миротворец. Святой Даниил Московский\VIDEO_TS\VIDEO_TS.BUP
Формат : DVD Video
Профиль формата : Menu
Размер файла : 20,0 Кбайт
Режим общего битрейта : Переменный
Видео
Идентификатор : 224 (0xE0)
Формат : MPEG Video
Версия формата : Version 2
Вид битрейта : Переменный
Ширина : 720 пикселей
Высота : 576 пикселей
Соотношение сторон : 4:3
Частота кадров : 25,000 кадров/сек
Стандарт вещания : PAL
Метод сжатия : С потерями
Текст
Формат : RLE
Формат/Информация : Run-length encoding
Битовая глубина : 2 бит
Общее
Полное имя : F:\MONAR.RU\Видео\Святые Вселенского Православия\Миротворец. Святой Даниил Московский\VIDEO_TS\VIDEO_TS.IFO
Формат : DVD Video
Профиль формата : Menu
Размер файла : 20,0 Кбайт
Режим общего битрейта : Переменный
Видео
Идентификатор : 224 (0xE0)
Формат : MPEG Video
Версия формата : Version 2
Вид битрейта : Переменный
Ширина : 720 пикселей
Высота : 576 пикселей
Соотношение сторон : 4:3
Частота кадров : 25,000 кадров/сек
Стандарт вещания : PAL
Метод сжатия : С потерями
Текст
Формат : RLE
Формат/Информация : Run-length encoding
Битовая глубина : 2 бит
Общее
Полное имя : F:\MONAR.RU\Видео\Святые Вселенского Православия\Миротворец. Святой Даниил Московский\VIDEO_TS\VIDEO_TS.VOB
Формат : MPEG-PS
Размер файла : 10,0 Кбайт
Продолжительность : 40 мс.
Общий поток : 2048 Кбит/сек
Видео
Идентификатор : 224 (0xE0)
Формат : MPEG Video
Версия формата : Version 2
Профиль формата : Main@Main
Параметр BVOP формата : Нет
Параметр матрицы формата : Выборочная
Продолжительность : 40 мс.
Максимальный битрейт : 9000 Кбит/сек
Ширина : 720 пикселей
Высота : 576 пикселей
Соотношение сторон : 4:3
Частота кадров : 25,000 кадров/сек
Стандарт вещания : PAL
Цветовое пространство : YUV
Субдискретизация насыщенности : 4:2:0
Битовая глубина : 8 бит
Тип развёртки : Прогрессивная
Порядок развёртки : Верхнее поле первое
Метод сжатия : С потерями
Временной код первого кадра : 00:00:00:00
Оригинал временного кода : Group of pictures header
Основные цвета : BT.601 NTSC
Характеристики трансфера : BT.601
Коэффициенты матрицы : BT.601
Меню
Общее
Полное имя : F:\MONAR.RU\Видео\Святые Вселенского Православия\Миротворец. Святой Даниил Московский\VIDEO_TS\VTS_01_0.BUP
Формат : DVD Video
Профиль формата : Program
Размер файла : 30,0 Кбайт
Продолжительность : 39 м.
Режим общего битрейта : Переменный
Общий поток : 105 бит/сек
Видео
Идентификатор : 224 (0xE0)
Формат : MPEG Video
Версия формата : Version 2
Продолжительность : 39 м.
Вид битрейта : Переменный
Ширина : 720 пикселей
Высота : 576 пикселей
Соотношение сторон : 16:9
Частота кадров : 25,000 кадров/сек
Стандарт вещания : PAL
Метод сжатия : С потерями
Аудио
Идентификатор : 0 (0x0)
Формат : PCM
Продолжительность : 39 м.
Каналы : 2 канала
Частота : 48,0 КГц
Меню
Продолжительность : 39 м.
00:00:00.000 : Chapter 1
00:00:40.320 : Chapter 2
00:04:06.720 : Chapter 3
00:10:46.560 : Chapter 4
00:15:36.960 : Chapter 5
00:20:23.520 : Chapter 6
00:27:23.040 : Chapter 7
00:32:27.840 : Chapter 8
00:34:27.840 : Chapter 9
00:39:00.000 : Chapter 10
List (Audio) : 0
Общее
Полное имя : F:\MONAR.RU\Видео\Святые Вселенского Православия\Миротворец. Святой Даниил Московский\VIDEO_TS\VTS_01_0.IFO
Формат : DVD Video
Профиль формата : Program
Размер файла : 30,0 Кбайт
Продолжительность : 39 м.
Режим общего битрейта : Переменный
Общий поток : 105 бит/сек
Видео
Идентификатор : 224 (0xE0)
Формат : MPEG Video
Версия формата : Version 2
Продолжительность : 39 м.
Вид битрейта : Переменный
Ширина : 720 пикселей
Высота : 576 пикселей
Соотношение сторон : 16:9
Частота кадров : 25,000 кадров/сек
Стандарт вещания : PAL
Метод сжатия : С потерями
Аудио
Идентификатор : 0 (0x0)
Формат : PCM
Продолжительность : 39 м.
Каналы : 2 канала
Частота : 48,0 КГц
Меню
Продолжительность : 39 м.
00:00:00.000 : Chapter 1
00:00:40.320 : Chapter 2
00:04:06.720 : Chapter 3
00:10:46.560 : Chapter 4
00:15:36.960 : Chapter 5
00:20:23.520 : Chapter 6
00:27:23.040 : Chapter 7
00:32:27.840 : Chapter 8
00:34:27.840 : Chapter 9
00:39:00.000 : Chapter 10
List (Audio) : 0
Общее
Полное имя : F:\MONAR.RU\Видео\Святые Вселенского Православия\Миротворец. Святой Даниил Московский\VIDEO_TS\VTS_01_0.VOB
Формат : MPEG-PS
Размер файла : 3,45 Мбайт
Продолжительность : 4 с. 440 мс.
Режим общего битрейта : Переменный
Общий поток : 6517 Кбит/сек
Видео
Идентификатор : 224 (0xE0)
Формат : MPEG Video
Версия формата : Version 2
Профиль формата : Main@Main
Параметр BVOP формата : Да
Параметр матрицы формата : Выборочная
Параметр GOP формата : M=3, N=12
Продолжительность : 4 с. 440 мс.
Вид битрейта : Переменный
Битрейт : 6387 Кбит/сек
Ширина : 720 пикселей
Высота : 576 пикселей
Соотношение сторон : 16:9
Частота кадров : 25,000 кадров/сек
Стандарт вещания : PAL
Цветовое пространство : YUV
Субдискретизация насыщенности : 4:2:0
Битовая глубина : 8 бит
Метод сжатия : С потерями
Бит/(Пиксели*Кадры) : 0.616
Размер потока : 3,38 Мбайт (98%)
Основные цвета : BT.601 PAL
Характеристики трансфера : BT.470 System B, BT.470 System G
Коэффициенты матрицы : BT.601
Текст #1
Идентификатор : 189 (0xBD)-33 (0x21)
Формат : RLE
Формат/Информация : Run-length encoding
Режим смешивания : DVD-Video
Задержка видео : 20 мс.
Текст #2
Идентификатор : 189 (0xBD)-34 (0x22)
Формат : RLE
Формат/Информация : Run-length encoding
Режим смешивания : DVD-Video
Задержка видео : 20 мс.
Меню
Общее
Полное имя : F:\MONAR.RU\Видео\Святые Вселенского Православия\Миротворец. Святой Даниил Московский\VIDEO_TS\VTS_01_1.VOB
Формат : MPEG-PS
Размер файла : 1024 Мбайт
Продолжительность : 17 м.
Режим общего битрейта : Переменный
Общий поток : 8366 Кбит/сек
Видео
Идентификатор : 224 (0xE0)
Формат : MPEG Video
Версия формата : Version 2
Профиль формата : Main@Main
Параметр BVOP формата : Да
Параметр матрицы формата : Выборочная
Параметр GOP формата : M=3, N=12
Продолжительность : 17 м.
Вид битрейта : Переменный
Битрейт : 6663 Кбит/сек
Максимальный битрейт : 8200 Кбит/сек
Ширина : 720 пикселей
Высота : 576 пикселей
Соотношение сторон : 16:9
Частота кадров : 25,000 кадров/сек
Стандарт вещания : PAL
Цветовое пространство : YUV
Субдискретизация насыщенности : 4:2:0
Битовая глубина : 8 бит
Тип развёртки : Чересстрочная
Порядок развёртки : Нижнее поле первое
Метод сжатия : С потерями
Бит/(Пиксели*Кадры) : 0.643
Временной код первого кадра : 00:00:00:00
Оригинал временного кода : Group of pictures header
Размер потока : 816 Мбайт (80%)
Основные цвета : BT.601 PAL
Характеристики трансфера : BT.470 System B, BT.470 System G
Коэффициенты матрицы : BT.601
Аудио
Идентификатор : 189 (0xBD)-160 (0xA0)
Формат : PCM
Параметр Endianness формата : Big
Параметр Sign формата : Signed
Режим смешивания : DVD-Video
Продолжительность : 17 м.
Вид битрейта : Постоянный
Битрейт : 1536 Кбит/сек
Каналы : 2 канала
Частота : 48,0 КГц
Битовая глубина : 16 бит
Размер потока : 188 Мбайт (18%)
Меню
Общее
Полное имя : F:\MONAR.RU\Видео\Святые Вселенского Православия\Миротворец. Святой Даниил Московский\VIDEO_TS\VTS_01_2.VOB
Формат : MPEG-PS
Размер файла : 1024 Мбайт
Продолжительность : 16 м.
Режим общего битрейта : Переменный
Общий поток : 8807 Кбит/сек
Видео
Идентификатор : 224 (0xE0)
Формат : MPEG Video
Версия формата : Version 2
Профиль формата : Main@Main
Параметр BVOP формата : Да
Параметр матрицы формата : Выборочная
Параметр GOP формата : M=3, N=12
Продолжительность : 16 м.
Вид битрейта : Переменный
Битрейт : 7096 Кбит/сек
Максимальный битрейт : 8200 Кбит/сек
Ширина : 720 пикселей
Высота : 576 пикселей
Соотношение сторон : 16:9
Частота кадров : 25,000 кадров/сек
Стандарт вещания : PAL
Цветовое пространство : YUV
Субдискретизация насыщенности : 4:2:0
Битовая глубина : 8 бит
Тип развёртки : Чересстрочная
Порядок развёртки : Нижнее поле первое
Метод сжатия : С потерями
Бит/(Пиксели*Кадры) : 0.684
Временной код первого кадра : 00:17:07:05
Оригинал временного кода : Group of pictures header
Размер потока : 825 Мбайт (81%)
Основные цвета : BT.601 PAL
Характеристики трансфера : BT.470 System B, BT.470 System G
Коэффициенты матрицы : BT.601
Аудио
Идентификатор : 189 (0xBD)-160 (0xA0)
Формат : PCM
Параметр Endianness формата : Big
Параметр Sign формата : Signed
Режим смешивания : DVD-Video
Продолжительность : 16 м.
Вид битрейта : Постоянный
Битрейт : 1536 Кбит/сек
Каналы : 2 канала
Частота : 48,0 КГц
Битовая глубина : 16 бит
Задержка видео : -557 мс.
Размер потока : 179 Мбайт (17%)
Меню
Общее
Полное имя : F:\MONAR.RU\Видео\Святые Вселенского Православия\Миротворец. Святой Даниил Московский\VIDEO_TS\VTS_01_3.VOB
Формат : MPEG-PS
Размер файла : 354 Мбайт
Продолжительность : 5 м. 38 с.
Режим общего битрейта : Переменный
Общий поток : 8781 Кбит/сек
Видео
Идентификатор : 224 (0xE0)
Формат : MPEG Video
Версия формата : Version 2
Профиль формата : Main@Main
Параметр BVOP формата : Да
Параметр матрицы формата : Выборочная
Параметр GOP формата : M=3, N=12
Продолжительность : 5 м. 38 с.
Вид битрейта : Переменный
Битрейт : 7070 Кбит/сек
Максимальный битрейт : 8200 Кбит/сек
Ширина : 720 пикселей
Высота : 576 пикселей
Соотношение сторон : 16:9
Частота кадров : 25,000 кадров/сек
Стандарт вещания : PAL
Цветовое пространство : YUV
Субдискретизация насыщенности : 4:2:0
Битовая глубина : 8 бит
Тип развёртки : Чересстрочная
Порядок развёртки : Нижнее поле первое
Метод сжатия : С потерями
Бит/(Пиксели*Кадры) : 0.682
Временной код первого кадра : 00:33:22:14
Оригинал временного кода : Group of pictures header
Размер потока : 285 Мбайт (81%)
Основные цвета : BT.601 PAL
Характеристики трансфера : BT.470 System B, BT.470 System G
Коэффициенты матрицы : BT.601
Аудио
Идентификатор : 189 (0xBD)-160 (0xA0)
Формат : PCM
Параметр Endianness формата : Big
Параметр Sign формата : Signed
Режим смешивания : DVD-Video
Продолжительность : 5 м. 38 с.
Вид битрейта : Постоянный
Битрейт : 1536 Кбит/сек
Каналы : 2 канала
Частота : 48,0 КГц
Битовая глубина : 16 бит
Задержка видео : -635 мс.
Размер потока : 61,9 Мбайт (17%)
Меню
Общее
Полное имя : F:\MONAR.RU\Видео\Святые Вселенского Православия\Миротворец. Святой Даниил Московский\VIDEO_TS\VTS_02_0.BUP
Формат : DVD Video
Профиль формата : Program
Размер файла : 18,0 Кбайт
Продолжительность : 3 м. 6 с.
Режим общего битрейта : Переменный
Общий поток : 791 бит/сек
Видео
Идентификатор : 224 (0xE0)
Формат : MPEG Video
Версия формата : Version 2
Продолжительность : 3 м. 6 с.
Вид битрейта : Переменный
Ширина : 720 пикселей
Высота : 576 пикселей
Соотношение сторон : 16:9
Частота кадров : 25,000 кадров/сек
Стандарт вещания : PAL
Метод сжатия : С потерями
Аудио
Идентификатор : 0 (0x0)
Формат : PCM
Продолжительность : 3 м. 6 с.
Каналы : 2 канала
Частота : 48,0 КГц
Язык : Russian
Меню
Продолжительность : 3 м. 6 с.
00:00:00.000 : Chapter 1
00:03:06.080 : Chapter 2
List (Audio) : 0
Общее
Полное имя : F:\MONAR.RU\Видео\Святые Вселенского Православия\Миротворец. Святой Даниил Московский\VIDEO_TS\VTS_02_0.IFO
Формат : DVD Video
Профиль формата : Program
Размер файла : 18,0 Кбайт
Продолжительность : 3 м. 6 с.
Режим общего битрейта : Переменный
Общий поток : 791 бит/сек
Видео
Идентификатор : 224 (0xE0)
Формат : MPEG Video
Версия формата : Version 2
Продолжительность : 3 м. 6 с.
Вид битрейта : Переменный
Ширина : 720 пикселей
Высота : 576 пикселей
Соотношение сторон : 16:9
Частота кадров : 25,000 кадров/сек
Стандарт вещания : PAL
Метод сжатия : С потерями
Аудио
Идентификатор : 0 (0x0)
Формат : PCM
Продолжительность : 3 м. 6 с.
Каналы : 2 канала
Частота : 48,0 КГц
Язык : Russian
Меню
Продолжительность : 3 м. 6 с.
00:00:00.000 : Chapter 1
00:03:06.080 : Chapter 2
List (Audio) : 0
Общее
Полное имя : F:\MONAR.RU\Видео\Святые Вселенского Православия\Миротворец. Святой Даниил Московский\VIDEO_TS\VTS_02_0.VOB
Формат : MPEG-PS
Размер файла : 153 Мбайт
Продолжительность : 1 м. 0 с.
Общий поток : 21,4 Мбит/сек
Видео
Идентификатор : 224 (0xE0)
Формат : MPEG Video
Версия формата : Version 2
Профиль формата : Main@Main
Параметр BVOP формата : Да
Параметр матрицы формата : По умолчанию
Параметр GOP формата : M=3, N=12
Продолжительность : 1 м. 0 с.
Битрейт : 19,4 Мбит/сек
Ширина : 720 пикселей
Высота : 576 пикселей
Соотношение сторон : 16:9
Частота кадров : 25,000 кадров/сек
Стандарт вещания : PAL
Цветовое пространство : YUV
Субдискретизация насыщенности : 4:2:0
Битовая глубина : 8 бит
Метод сжатия : С потерями
Бит/(Пиксели*Кадры) : 1.873
Размер потока : 139 Мбайт (91%)
Основные цвета : BT.601 NTSC
Характеристики трансфера : BT.601
Коэффициенты матрицы : BT.601
Аудио
Идентификатор : 189 (0xBD)-160 (0xA0)
Формат : PCM
Параметр Endianness формата : Big
Параметр Sign формата : Signed
Режим смешивания : DVD-Video
Продолжительность : 1 м. 0 с.
Вид битрейта : Постоянный
Битрейт : 1536 Кбит/сек
Каналы : 2 канала
Частота : 48,0 КГц
Битовая глубина : 16 бит
Задержка видео : 38 мс.
Размер потока : 11,0 Мбайт (7%)
Текст #1
Идентификатор : 189 (0xBD)-33 (0x21)
Формат : RLE
Формат/Информация : Run-length encoding
Режим смешивания : DVD-Video
Задержка видео : 58 мс.
Текст #2
Идентификатор : 189 (0xBD)-34 (0x22)
Формат : RLE
Формат/Информация : Run-length encoding
Режим смешивания : DVD-Video
Задержка видео : 58 мс.
Меню
Общее
Полное имя : F:\MONAR.RU\Видео\Святые Вселенского Православия\Миротворец. Святой Даниил Московский\VIDEO_TS\VTS_02_1.VOB
Формат : MPEG-PS
Размер файла : 192 Мбайт
Продолжительность : 3 м. 6 с.
Режим общего битрейта : Переменный
Общий поток : 8652 Кбит/сек
Видео
Идентификатор : 224 (0xE0)
Формат : MPEG Video
Версия формата : Version 2
Профиль формата : Main@Main
Параметр BVOP формата : Да
Параметр матрицы формата : Выборочная
Параметр GOP формата : M=3, N=12
Продолжительность : 2 мс.
Вид битрейта : Переменный
Битрейт : 6944 Кбит/сек
Максимальный битрейт : 8200 Кбит/сек
Ширина : 720 пикселей
Высота : 576 пикселей
Соотношение сторон : 16:9
Частота кадров : 25,000 кадров/сек
Стандарт вещания : PAL
Цветовое пространство : YUV
Субдискретизация насыщенности : 4:2:0
Битовая глубина : 8 бит
Тип развёртки : Чересстрочная
Порядок развёртки : Нижнее поле первое
Метод сжатия : С потерями
Бит/(Пиксели*Кадры) : 0.670
Временной код первого кадра : 00:00:00:00
Оригинал временного кода : Group of pictures header
Размер потока : 1,70 Кбайт (0%)
Основные цвета : BT.601 PAL
Характеристики трансфера : BT.470 System B, BT.470 System G
Коэффициенты матрицы : BT.601
Аудио
Идентификатор : 189 (0xBD)-160 (0xA0)
Формат : PCM
Параметр Endianness формата : Big
Параметр Sign формата : Signed
Режим смешивания : DVD-Video
Продолжительность : 3 м. 6 с.
Вид битрейта : Постоянный
Битрейт : 1536 Кбит/сек
Каналы : 2 канала
Частота : 48,0 КГц
Битовая глубина : 16 бит
Размер потока : 34,1 Мбайт (18%)
Меню
Общее
Полное имя : F:\MONAR.RU\Видео\Святые Вселенского Православия\Миротворец. Святой Даниил Московский\VIDEO_TS\VTS_03_0.BUP
Формат : DVD Video
Профиль формата : Program
Размер файла : 18,0 Кбайт
Продолжительность : 2 м. 33 с.
Режим общего битрейта : Переменный
Общий поток : 961 бит/сек
Видео
Идентификатор : 224 (0xE0)
Формат : MPEG Video
Версия формата : Version 2
Продолжительность : 2 м. 33 с.
Вид битрейта : Переменный
Ширина : 720 пикселей
Высота : 576 пикселей
Соотношение сторон : 16:9
Частота кадров : 25,000 кадров/сек
Стандарт вещания : PAL
Метод сжатия : С потерями
Аудио
Идентификатор : 0 (0x0)
Формат : PCM
Продолжительность : 2 м. 33 с.
Каналы : 2 канала
Частота : 48,0 КГц
Язык : Russian
Меню
Продолжительность : 2 м. 33 с.
00:00:00.000 : Chapter 1
00:02:33.120 : Chapter 2
List (Audio) : 0
Общее
Полное имя : F:\MONAR.RU\Видео\Святые Вселенского Православия\Миротворец. Святой Даниил Московский\VIDEO_TS\VTS_03_0.IFO
Формат : DVD Video
Профиль формата : Program
Размер файла : 18,0 Кбайт
Продолжительность : 2 м. 33 с.
Режим общего битрейта : Переменный
Общий поток : 961 бит/сек
Видео
Идентификатор : 224 (0xE0)
Формат : MPEG Video
Версия формата : Version 2
Продолжительность : 2 м. 33 с.
Вид битрейта : Переменный
Ширина : 720 пикселей
Высота : 576 пикселей
Соотношение сторон : 16:9
Частота кадров : 25,000 кадров/сек
Стандарт вещания : PAL
Метод сжатия : С потерями
Аудио
Идентификатор : 0 (0x0)
Формат : PCM
Продолжительность : 2 м. 33 с.
Каналы : 2 канала
Частота : 48,0 КГц
Язык : Russian
Меню
Продолжительность : 2 м. 33 с.
00:00:00.000 : Chapter 1
00:02:33.120 : Chapter 2
List (Audio) : 0
Общее
Полное имя : F:\MONAR.RU\Видео\Святые Вселенского Православия\Миротворец. Святой Даниил Московский\VIDEO_TS\VTS_03_0.VOB
Формат : MPEG-PS
Размер файла : 10,0 Кбайт
Продолжительность : 40 мс.
Общий поток : 2048 Кбит/сек
Видео
Идентификатор : 224 (0xE0)
Формат : MPEG Video
Версия формата : Version 2
Профиль формата : Main@Main
Параметр BVOP формата : Нет
Параметр матрицы формата : Выборочная
Продолжительность : 40 мс.
Максимальный битрейт : 9000 Кбит/сек
Ширина : 720 пикселей
Высота : 576 пикселей
Соотношение сторон : 4:3
Частота кадров : 25,000 кадров/сек
Стандарт вещания : PAL
Цветовое пространство : YUV
Субдискретизация насыщенности : 4:2:0
Битовая глубина : 8 бит
Тип развёртки : Прогрессивная
Порядок развёртки : Верхнее поле первое
Метод сжатия : С потерями
Временной код первого кадра : 00:00:00:00
Оригинал временного кода : Group of pictures header
Основные цвета : BT.601 NTSC
Характеристики трансфера : BT.601
Коэффициенты матрицы : BT.601
Меню
Общее
Полное имя : F:\MONAR.RU\Видео\Святые Вселенского Православия\Миротворец. Святой Даниил Московский\VIDEO_TS\VTS_03_1.VOB
Формат : MPEG-PS
Размер файла : 158 Мбайт
Продолжительность : 2 м. 33 с.
Режим общего битрейта : Переменный
Общий поток : 8672 Кбит/сек
Видео
Идентификатор : 224 (0xE0)
Формат : MPEG Video
Версия формата : Version 2
Профиль формата : Main@Main
Параметр BVOP формата : Да
Параметр матрицы формата : Выборочная
Параметр GOP формата : M=3, N=12
Продолжительность : 6 мс.
Вид битрейта : Переменный
Битрейт : 6963 Кбит/сек
Максимальный битрейт : 8200 Кбит/сек
Ширина : 720 пикселей
Высота : 576 пикселей
Соотношение сторон : 16:9
Частота кадров : 25,000 кадров/сек
Стандарт вещания : PAL
Цветовое пространство : YUV
Субдискретизация насыщенности : 4:2:0
Битовая глубина : 8 бит
Тип развёртки : Чересстрочная
Порядок развёртки : Нижнее поле первое
Метод сжатия : С потерями
Бит/(Пиксели*Кадры) : 0.672
Временной код первого кадра : 00:03:06:06
Оригинал временного кода : Group of pictures header
Размер потока : 5,10 Кбайт (0%)
Основные цвета : BT.601 PAL
Характеристики трансфера : BT.470 System B, BT.470 System G
Коэффициенты матрицы : BT.601
Аудио
Идентификатор : 189 (0xBD)-160 (0xA0)
Формат : PCM
Параметр Endianness формата : Big
Параметр Sign формата : Signed
Режим смешивания : DVD-Video
Продолжительность : 2 м. 33 с.
Вид битрейта : Постоянный
Битрейт : 1536 Кбит/сек
Каналы : 2 канала
Частота : 48,0 КГц
Битовая глубина : 16 бит
Размер потока : 28,0 Мбайт (18%)
Меню
Скриншоты
Анаморфированные скриншоты
Обложки и диск