Чёрный ящик - субъективные заметки о недоказуемом. Новая книга Юрия Воробьевского (Дмитрий Николаев)

Чёрный ящик - субъективные заметки о недоказуемом. Новая книга Юрия Воробьевского (Дмитрий Николаев)
Название:
Чёрный ящик - субъективные заметки о недоказуемом. Новая книга Юрия Воробьевского (Дмитрий Николаев)
Размер:
23.31 GB
31
Скачать
Чёрный ящик - субъективные заметки о недоказуемом. Новая книга Юрия Воробьевского
Год выпуска: 2013
Страна: Россия
Жанр: Православные беседы
Продолжительность: 02:03:34
Перевод: Не требуется
Русские субтитры: нет
Режиссер: Д. Николаев
Описание: Есть предметы, которые никогда не смогут стать темой диссертации или доклада на респектабельной конференции. Серопиджачное «здравомыслие» говорит: выдумки! Слепая «законность» и черношляпная толерантность предупреждают: табу! А мы отвечаем: то, что запрещено — разрешено. Кем? Тем, Кто сказал: всё тайное станет явным.
Православный писатель-конспиролог Юрий Воробьевский представил свою новую книгу, ответил на вопросы слушателей и призвал православных к подвигу повседневности.
Доп. информация: Постера с названием кадра нет, съемка любительская.
Сэмпл: http://www.sendspace.com/file/plnbmz
Качество: HDRip
Формат: TS/M2TS
Видео: MPEG2, 1440*1080 (16:9), ~25907 Кбит/сек, 25,000 кадров/сек
Аудио: Русский, 384 Кбит/сек, 48,0 КГц, 2 канала, MPEG Audio
MediaInfo
Часть 1
Общее
Идентификатор : 255 (0xFF)
Полное имя : L:\Monar.ru\Видео\Документальные фильмы\Познавательные фильмы\Чёрный ящик - субъективные заметки о недоказуемом. Новая книга Юрия Воробьевского\Часть 1.ts
Формат : MPEG-TS
Коммерческое название : HDV 1080i
Размер файла : 11,4 Гбайт
Продолжительность : 1 ч. 0 м.
Время начала : UTC 2013-12-16 06:19:16
Время окончания : UTC 2013-12-16 07:19:29
Режим общего битрейта : Переменный
Общий поток : 27,0 Мбит/сек
Максимальный общий битрейт : 33,0 Мбит/сек
Дата кодирования : UTC 2013-12-16 06:19:16
Видео
Идентификатор : 2064 (0x810)
Идентификатор меню : 100 (0x64)
Формат : MPEG Video
Коммерческое название : HDV 1080i
Версия формата : Version 2
Профиль формата : Main@High 1440
Параметр BVOP формата : Да
Параметр матрицы формата : Выборочная
Параметр GOP формата : M=3, N=12
Идентификатор кодека : 2
Продолжительность : 1 ч. 0 м.
Битрейт : 25,3 Мбит/сек
Максимальный битрейт : 25,0 Мбит/сек
Ширина : 1440 пикселей
Высота : 1080 пикселей
Соотношение сторон : 16:9
Частота кадров : 25,000 кадров/сек
Стандарт вещания : Component
Цветовое пространство : YUV
Субдискретизация насыщенности : 4:2:0
Битовая глубина : 8 бит
Тип развёртки : Чересстрочная
Порядок развёртки : Верхнее поле первое
Метод сжатия : С потерями
Бит/(Пиксели*Кадры) : 0.650
Размер потока : 10,6 Гбайт (94%)
Основные цвета : BT.709
Характеристики трансфера : BT.709
Коэффициенты матрицы : BT.709
Аудио
Идентификатор : 2068 (0x814)
Идентификатор меню : 100 (0x64)
Формат : MPEG Audio
Версия формата : Version 1
Профиль формата : Layer 2
Идентификатор кодека : 3
Продолжительность : 1 ч. 0 м.
Вид битрейта : Постоянный
Битрейт : 384 Кбит/сек
Каналы : 2 канала
Частота : 48,0 КГц
Метод сжатия : С потерями
Задержка видео : 72 мс.
Размер потока : 166 Мбайт (1%)
Меню
Идентификатор : 129 (0x81)
Идентификатор меню : 100 (0x64)
Список : 2064 (0x810) (MPEG Video) / 2068 (0x814) (MPEG Audio) / 2069 (0x815) () / 2065 (0x811) ()
Часть 2
Общее
Идентификатор : 255 (0xFF)
Полное имя : L:\Monar.ru\Видео\Документальные фильмы\Познавательные фильмы\Чёрный ящик - субъективные заметки о недоказуемом. Новая книга Юрия Воробьевского\Часть 2.ts
Формат : MPEG-TS
Коммерческое название : HDV 1080i
Размер файла : 11,4 Гбайт
Продолжительность : 1 ч. 0 м.
Время начала : UTC 2013-12-16 07:20:09
Время окончания : UTC 2013-12-16 08:20:18
Режим общего битрейта : Переменный
Общий поток : 27,0 Мбит/сек
Максимальный общий битрейт : 33,0 Мбит/сек
Дата кодирования : UTC 2013-12-16 07:20:09
Видео
Идентификатор : 2064 (0x810)
Идентификатор меню : 100 (0x64)
Формат : MPEG Video
Коммерческое название : HDV 1080i
Версия формата : Version 2
Профиль формата : Main@High 1440
Параметр BVOP формата : Да
Параметр матрицы формата : Выборочная
Параметр GOP формата : M=3, N=12
Идентификатор кодека : 2
Продолжительность : 1 ч. 0 м.
Битрейт : 25,3 Мбит/сек
Максимальный битрейт : 25,0 Мбит/сек
Ширина : 1440 пикселей
Высота : 1080 пикселей
Соотношение сторон : 16:9
Частота кадров : 25,000 кадров/сек
Стандарт вещания : Component
Цветовое пространство : YUV
Субдискретизация насыщенности : 4:2:0
Битовая глубина : 8 бит
Тип развёртки : Чересстрочная
Порядок развёртки : Верхнее поле первое
Метод сжатия : С потерями
Бит/(Пиксели*Кадры) : 0.650
Размер потока : 10,6 Гбайт (94%)
Основные цвета : BT.709
Характеристики трансфера : BT.709
Коэффициенты матрицы : BT.709
Аудио
Идентификатор : 2068 (0x814)
Идентификатор меню : 100 (0x64)
Формат : MPEG Audio
Версия формата : Version 1
Профиль формата : Layer 2
Идентификатор кодека : 3
Продолжительность : 1 ч. 0 м.
Вид битрейта : Постоянный
Битрейт : 384 Кбит/сек
Каналы : 2 канала
Частота : 48,0 КГц
Метод сжатия : С потерями
Задержка видео : -32 мс.
Размер потока : 165 Мбайт (1%)
Меню
Идентификатор : 129 (0x81)
Идентификатор меню : 100 (0x64)
Список : 2064 (0x810) (MPEG Video) / 2068 (0x814) (MPEG Audio) / 2069 (0x815) () / 2065 (0x811) ()
Часть 3
Общее
Идентификатор : 255 (0xFF)
Полное имя : L:\Monar.ru\Видео\Документальные фильмы\Познавательные фильмы\Чёрный ящик - субъективные заметки о недоказуемом. Новая книга Юрия Воробьевского\Часть 3.ts
Формат : MPEG-TS
Коммерческое название : HDV 1080i
Размер файла : 592 Мбайт
Продолжительность : 3 м. 3 с.
Время начала : UTC 2013-12-16 08:20:52
Время окончания : UTC 2013-12-16 08:23:51
Режим общего битрейта : Переменный
Общий поток : 27,0 Мбит/сек
Максимальный общий битрейт : 33,0 Мбит/сек
Дата кодирования : UTC 2013-12-16 08:20:52
Видео
Идентификатор : 2064 (0x810)
Идентификатор меню : 100 (0x64)
Формат : MPEG Video
Коммерческое название : HDV 1080i
Версия формата : Version 2
Профиль формата : Main@High 1440
Параметр BVOP формата : Да
Параметр матрицы формата : Выборочная
Параметр GOP формата : M=3, N=12
Идентификатор кодека : 2
Продолжительность : 3 м. 3 с.
Битрейт : 25,3 Мбит/сек
Максимальный битрейт : 25,0 Мбит/сек
Ширина : 1440 пикселей
Высота : 1080 пикселей
Соотношение сторон : 16:9
Частота кадров : 25,000 кадров/сек
Стандарт вещания : Component
Цветовое пространство : YUV
Субдискретизация насыщенности : 4:2:0
Битовая глубина : 8 бит
Тип развёртки : Чересстрочная
Порядок развёртки : Верхнее поле первое
Метод сжатия : С потерями
Бит/(Пиксели*Кадры) : 0.650
Размер потока : 554 Мбайт (93%)
Основные цвета : BT.709
Характеристики трансфера : BT.709
Коэффициенты матрицы : BT.709
Аудио
Идентификатор : 2068 (0x814)
Идентификатор меню : 100 (0x64)
Формат : MPEG Audio
Версия формата : Version 1
Профиль формата : Layer 2
Идентификатор кодека : 3
Продолжительность : 3 м. 3 с.
Вид битрейта : Постоянный
Битрейт : 384 Кбит/сек
Каналы : 2 канала
Частота : 48,0 КГц
Метод сжатия : С потерями
Задержка видео : -32 мс.
Размер потока : 8,41 Мбайт (1%)
Меню
Идентификатор : 129 (0x81)
Идентификатор меню : 100 (0x64)
Список : 2064 (0x810) (MPEG Video) / 2068 (0x814) (MPEG Audio) / 2069 (0x815) () / 2065 (0x811) ()
Скриншоты