Надежда Храмова - Глобализация и права родителей (Телеканал "Союз")

Надежда Храмова - Глобализация и права родителей (Телеканал "Союз")
Название:
Надежда Храмова - Глобализация и права родителей (Телеканал "Союз")
Размер:
142 MB
32
Скачать
Надежда Храмова - Глобализация и права родителей
Год выпуска: 2011
Страна: Россия
Жанр: Православные беседы
Продолжительность: 00:21:17
Перевод: Не требуется
Русские субтитры: нет
Режиссер: Телеканал "Союз"
Описание: Тема доклада психолога-консультанта Надежды Храмовой - ювенальная война против семьи и традиционных ценностей русского народа.
Доп. информация: Постера с названием нет.
Сэмпл: http://multi-up.com/812614
качество: SATRip
формат: AVI
видеокодек: XviD
аудиокодек: MP3
Видео: 795 Кбит/сек, 640*480 (4:3), в 23,976 кадра/сек, MPEG-4 Visual (XviD) (Advanced Simple@L5) (BVOP2)
Аудио: Русский, 128 Кбит/сек, 44,1 КГц, 2 канала, MPEG Audio (MP3) (Version 1) (Layer 3) (Joint stereo / MS Stereo)
MediaInfo
Формат : AVI
Формат/Информация : Audio Video Interleave
Размер файла : 142 Мбайт
Продолжительность : 21 м.
Общий поток : 933 Кбит/сек
Видео
Идентификатор : 0
Формат : MPEG-4 Visual
Профиль формата : Advanced Simple@L5
Параметр BVOP формата : 2
Параметр QPel формата : Нет
Параметр GMC формата : Без точки перехода
Параметр матрицы формата : Default (H.263)
Идентификатор кодека : XVID
Идентификатор кодека/Подсказка : XviD
Продолжительность : 21 м.
Битрейт : 795 Кбит/сек
Ширина : 640 пикселей
Высота : 480 пикселей
Соотношение сторон : 4:3
Частота кадров : 23,976 кадра/сек
Цветовое пространство : YUV
Субдискретизация насыщенности : 4:2:0
Битовая глубина : 8 бит
Тип развёртки : Прогрессивная
Метод сжатия : С потерями
Бит/(Пиксели*Кадры) : 0.108
Размер потока : 121 Мбайт (85%)
Библиотека кодирования : XviD 1.2.1 (UTC 2008-12-04)
Аудио
Идентификатор : 1
Формат : MPEG Audio
Версия формата : Version 1
Профиль формата : Layer 3
Режим : Joint stereo
Расширение режима : MS Stereo
Идентификатор кодека : 55
Идентификатор кодека/Подсказка : MP3
Продолжительность : 21 м.
Продолжительность оригинала : 21 м.
Вид битрейта : Постоянный
Битрейт : 128 Кбит/сек
Каналы : 2 канала
Частота : 44,1 КГц
Метод сжатия : С потерями
Размер потока : 19,5 Мбайт (14%)
Выравнивание : Соединение по промежуткам
Продолжительность промежутка : 42 мс. (1,00 видеокадр)
Библиотека кодирования : LAME3.98.2
Скриншоты