Беседа священника Виктора Кузнецова ''Злобный пасквиль Левиафан'' (25.02.15) (Студия православных фильмов во имя Апостола и Евангелиста Иоанна Богослова)

Беседа священника Виктора Кузнецова ''Злобный пасквиль Левиафан'' (25.02.15) (Студия православных фильмов во имя Апостола и Евангелиста Иоанна Богослова)
Название:
Беседа священника Виктора Кузнецова ''Злобный пасквиль Левиафан'' (25.02.15) (Студия православных фильмов во имя Апостола и Евангелиста Иоанна Богослова)
Размер:
749.9 MB
33
Скачать
Беседа священника Виктора Кузнецова ''Злобный пасквиль Левиафан''
Дата/Год выпуска: 25.02.2015
Страна: Россия
Жанр: Православные беседы
Продолжительность: 01:08:02 + 01:00:00
Перевод: Не требуется
Русские субтитры: нет
Оригинальная аудиодорожка: русский
Режиссер: Студия православных фильмов во имя Апостола и Евангелиста Иоанна Богослова
Описание: Отец Виктор Кузнецов подробно раскрывает как антиправославную и антирусскую сущность звягинского опуса, так и абсолютный непрофессионализм в раскрытии темы, отсутствие элементарных знаний у режиссера о внутрицерковной жизни и взаимодействии Церкви с обществом.
Сэмпл: https://www.sendspace.com/file/5c3n58
Качество: WebRip
Формат: AVI
Видео: 640*480 (4:3), 25,000 кадров/сек, XviD
Аудио: Русский, 128 Кбит/сек, 44,1 КГц, 2 канала, MP3
Битрейты, отчёты и скриншоты
Часть 1 ( 683 Кбит/сек)
MediaInfo
Общее
Полное имя : F:\MONAR.RU\Видео\Познавательные фильмы\Беседа священника Виктора Кузнецова ''Злобный пасквиль Левиафан''\Часть 1.avi
Формат : AVI
Формат/Информация : Audio Video Interleave
Размер файла : 401 Мбайт
Продолжительность : 1 ч. 8 м.
Общий поток : 823 Кбит/сек
Видео
Идентификатор : 0
Формат : MPEG-4 Visual
Профиль формата : Simple@L1
Параметр BVOP формата : Нет
Параметр QPel формата : Нет
Параметр GMC формата : Без точки перехода
Параметр матрицы формата : Default (H.263)
Идентификатор кодека : XVID
Идентификатор кодека/Подсказка : XviD
Продолжительность : 1 ч. 8 м.
Битрейт : 683 Кбит/сек
Ширина : 640 пикселей
Высота : 480 пикселей
Соотношение сторон : 4:3
Частота кадров : 25,000 кадров/сек
Цветовое пространство : YUV
Субдискретизация насыщенности : 4:2:0
Битовая глубина : 8 бит
Тип развёртки : Прогрессивная
Метод сжатия : С потерями
Бит/(Пиксели*Кадры) : 0.089
Размер потока : 332 Мбайт (83%)
Библиотека кодирования : Lavc56.0.101
Аудио
Идентификатор : 1
Формат : MPEG Audio
Версия формата : Version 1
Профиль формата : Layer 3
Идентификатор кодека : 55
Идентификатор кодека/Подсказка : MP3
Продолжительность : 1 ч. 8 м.
Продолжительность оригинала : 1 ч. 8 м.
Вид битрейта : Постоянный
Битрейт : 128 Кбит/сек
Каналы : 2 канала
Частота : 44,1 КГц
Метод сжатия : С потерями
Размер потока : 62,3 Мбайт (16%)
Выравнивание : Разделение по промежуткам
Продолжительность промежутка : 26 мс. (0,65 видеокадр)
Библиотека кодирования : LAME3.98.2UUUUUU
Часть 2 (660 Кбит/сек)
MediaInfo
Общее
Полное имя : F:\MONAR.RU\Видео\Познавательные фильмы\Беседа священника Виктора Кузнецова ''Злобный пасквиль Левиафан''\Часть 2.avi
Формат : AVI
Формат/Информация : Audio Video Interleave
Размер файла : 349 Мбайт
Продолжительность : 1 ч. 1 м.
Общий поток : 800 Кбит/сек
Видео
Идентификатор : 0
Формат : MPEG-4 Visual
Профиль формата : Advanced Simple@L5
Параметр BVOP формата : 2
Параметр QPel формата : Нет
Параметр GMC формата : Без точки перехода
Параметр матрицы формата : Выборочная
Идентификатор кодека : XVID
Идентификатор кодека/Подсказка : XviD
Продолжительность : 1 ч. 1 м.
Битрейт : 660 Кбит/сек
Ширина : 640 пикселей
Высота : 480 пикселей
Соотношение сторон : 4:3
Частота кадров : 25,000 кадров/сек
Цветовое пространство : YUV
Субдискретизация насыщенности : 4:2:0
Битовая глубина : 8 бит
Тип развёртки : Прогрессивная
Метод сжатия : С потерями
Бит/(Пиксели*Кадры) : 0.086
Размер потока : 288 Мбайт (82%)
Библиотека кодирования : XviD 1.2.1 (UTC 2008-12-04)
Аудио
Идентификатор : 1
Формат : MPEG Audio
Версия формата : Version 1
Профиль формата : Layer 3
Идентификатор кодека : 55
Идентификатор кодека/Подсказка : MP3
Продолжительность : 1 ч. 1 м.
Продолжительность оригинала : 1 ч. 1 м.
Вид битрейта : Постоянный
Битрейт : 128 Кбит/сек
Каналы : 2 канала
Частота : 44,1 КГц
Метод сжатия : С потерями
Размер потока : 55,9 Мбайт (16%)
Выравнивание : Разделение по промежуткам
Продолжительность промежутка : 26 мс. (0,65 видеокадр)
Библиотека кодирования : LAME3.98.2ЄЄЄЄЄЄЄЄЄЄ