Почему мы православные (Трилогия) (Александр Александров)

Почему мы православные (Трилогия) (Александр Александров)
Название:
Почему мы православные (Трилогия) (Александр Александров)
Размер:
2.71 GB
38
Скачать
Почему мы православные
Дата/Год выпуска: 1998
Страна: Россия
Жанр: Православие
Продолжительность: 01:19:23
Перевод: Не требуется
Режиссер: Александр Александров
Фильм найден на необъятных просторах интернета. Размещен исключительно из соображений справедливости. Надеюсь, что страсть тщеславия немного здесь получила своего.

Описание: "Почему мы православные”- один из лучших фильмов о православии.Фильм - трилогия, герои которого профессор Московской Духовной академии - Осипов Алексей Ильич, настоятель храма Преображения в селе Радонеж игумен Нектарий и старец с острова Залита протоиерей Николай, доносят до зрителя важнейшие постулаты православного мышления. Не ограничиваясь рамками жизни церкви, авторы пытаются ответить на самые животрепещущие вопросы человека. На VII Международном кинофестивале славянских и православных народов "Золотой Витязь" фильм получил специальный приз Святейшего Патриарха всея Руси Алексия II "За лучший Православный фильм".
Качество: DVD5
Формат: DVD Video
Видео кодек: MPEG2
Аудио кодек: MPEG Audio
Видео: MPEG Video (PAL), 720*576 (4:3), 3967 Кбит/сек (6694 Кбит/сек), в 25,000 кадр/сек
Аудио: MPEG Audio Version 1, 224 Кбит/сек, 48,0 КГц, 2 канала
DVDInfo
Title: Почему мы православные. Трилогия
Size: 2.71 Gb ( 2 846 210,00 KBytes ) - DVD-5
Enabled regions: 1, 2, 3, 4, 5, 6, 7, 8
VTS_01 :
Play Length: 01:19:23+00:00:45
Video: PAL 4:3 (720x576) VBR
Audio:
English (MPEG1, 2 ch)
* Menus Information *
VIDEO_TS Menu
Video:
PAL 4:3 (720x576) VBR
Audio:
Not specified (MPEG1, 2 ch)
English Language Unit :
Title Menu
VTS_01 Menu
Video:
PAL 4:3 (720x576) VBR
Audio:
Not specified (MPEG1, 2 ch)
English Language Unit :
Root Menu
MediaInfo
Общее
Полное имя : Почему мы православные. Трилогия\VIDEO_TS\VIDEO_TS.BUP
Формат : DVD Video
Профиль формата : Menu
Размер файла : 14,0 Кбайт
Режим общего битрейта : Переменный
Видео
Идентификатор : 224 (0xE0)
Формат : MPEG Video
Версия формата : Version 2
Вид битрейта : Переменный
Ширина : 720 пикселей
Высота : 576 пикселей
Соотношение сторон : 4:3
Частота кадров : 25,000 кадров/сек
Стандарт вещания : PAL
Метод сжатия : С потерями
Аудио
Формат : MPEG Audio
Профиль формата : Version 1
Каналы : 2 канала
Частота : 48,0 КГц
Метод сжатия : С потерями
Текст
Формат : RLE
Формат/Информация : Run-length encoding
Битовая глубина : 2 бит
Общее
Полное имя : Почему мы православные. Трилогия\VIDEO_TS\VIDEO_TS.IFO
Формат : DVD Video
Профиль формата : Menu
Размер файла : 14,0 Кбайт
Режим общего битрейта : Переменный
Видео
Идентификатор : 224 (0xE0)
Формат : MPEG Video
Версия формата : Version 2
Вид битрейта : Переменный
Ширина : 720 пикселей
Высота : 576 пикселей
Соотношение сторон : 4:3
Частота кадров : 25,000 кадров/сек
Стандарт вещания : PAL
Метод сжатия : С потерями
Аудио
Формат : MPEG Audio
Профиль формата : Version 1
Каналы : 2 канала
Частота : 48,0 КГц
Метод сжатия : С потерями
Текст
Формат : RLE
Формат/Информация : Run-length encoding
Битовая глубина : 2 бит
Общее
Полное имя : Почему мы православные. Трилогия\VIDEO_TS\VIDEO_TS.VOB
Формат : MPEG-PS
Размер файла : 28,8 Мбайт
Продолжительность : 56 с.
Режим общего битрейта : Переменный
Общий поток : 4276 Кбит/сек
Видео
Идентификатор : 224 (0xE0)
Формат : MPEG Video
Версия формата : Version 2
Профиль формата : Main@Main
Параметр BVOP формата : Да
Параметр матрицы формата : По умолчанию
Параметр GOP формата : M=3, N=15
Продолжительность : 56 с.
Вид битрейта : Переменный
Битрейт : 3967 Кбит/сек
Максимальный битрейт : 6694 Кбит/сек
Ширина : 720 пикселей
Высота : 576 пикселей
Соотношение сторон : 4:3
Частота кадров : 25,000 кадров/сек
Стандарт вещания : PAL
Цветовое пространство : YUV
Субдискретизация насыщенности : 4:2:0
Битовая глубина : 8 бит
Тип развёртки : Чересстрочная
Порядок развёртки : Нижнее поле первое
Метод сжатия : С потерями
Бит/(Пиксели*Кадры) : 0.383
Временной код первого кадра : 00:00:00:00
Оригинал временного кода : Group of pictures header
Размер потока : 26,7 Мбайт (93%)
Аудио
Идентификатор : 192 (0xC0)
Формат : MPEG Audio
Версия формата : Version 1
Профиль формата : Layer 2
Продолжительность : 56 с.
Вид битрейта : Постоянный
Битрейт : 224 Кбит/сек
Каналы : 2 канала
Частота : 48,0 КГц
Метод сжатия : С потерями
Размер потока : 1,51 Мбайт (5%)
Меню
Общее
Полное имя : Почему мы православные. Трилогия\VIDEO_TS\VTS_01_0.BUP
Формат : DVD Video
Профиль формата : Program
Размер файла : 66,0 Кбайт
Продолжительность : 1 ч. 19 м.
Режим общего битрейта : Переменный
Общий поток : 114 бит/сек
Видео
Идентификатор : 224 (0xE0)
Формат : MPEG Video
Версия формата : Version 2
Продолжительность : 1 ч. 19 м.
Вид битрейта : Переменный
Ширина : 720 пикселей
Высота : 576 пикселей
Соотношение сторон : 4:3
Частота кадров : 25,000 кадров/сек
Стандарт вещания : PAL
Метод сжатия : С потерями
Аудио
Идентификатор : 0 (0x0)
Формат : MPEG Audio
Профиль формата : Version 1
Продолжительность : 1 ч. 19 м.
Каналы : 2 канала
Частота : 48,0 КГц
Метод сжатия : С потерями
Язык : English
Меню #1
Продолжительность : 1 ч. 19 м.
00:00:00.000 : Chapter 1
00:04:21.520 : Chapter 2
00:20:59.920 : Chapter 3
00:33:32.920 : Chapter 4
01:06:05.920 : Chapter 5
List (Audio) : 0
Меню #2
Продолжительность : 45 с.
00:00:00.000 : Chapter 1
List (Audio) : 0
Меню #3
Общее
Полное имя : Почему мы православные. Трилогия\VIDEO_TS\VTS_01_0.IFO
Формат : DVD Video
Профиль формата : Program
Размер файла : 66,0 Кбайт
Продолжительность : 1 ч. 19 м.
Режим общего битрейта : Переменный
Общий поток : 114 бит/сек
Видео
Идентификатор : 224 (0xE0)
Формат : MPEG Video
Версия формата : Version 2
Продолжительность : 1 ч. 19 м.
Вид битрейта : Переменный
Ширина : 720 пикселей
Высота : 576 пикселей
Соотношение сторон : 4:3
Частота кадров : 25,000 кадров/сек
Стандарт вещания : PAL
Метод сжатия : С потерями
Аудио
Идентификатор : 0 (0x0)
Формат : MPEG Audio
Профиль формата : Version 1
Продолжительность : 1 ч. 19 м.
Каналы : 2 канала
Частота : 48,0 КГц
Метод сжатия : С потерями
Язык : English
Меню #1
Продолжительность : 1 ч. 19 м.
00:00:00.000 : Chapter 1
00:04:21.520 : Chapter 2
00:20:59.920 : Chapter 3
00:33:32.920 : Chapter 4
01:06:05.920 : Chapter 5
List (Audio) : 0
Меню #2
Продолжительность : 45 с.
00:00:00.000 : Chapter 1
List (Audio) : 0
Меню #3
Общее
Полное имя : Почему мы православные. Трилогия\VIDEO_TS\VTS_01_0.VOB
Формат : MPEG-PS
Размер файла : 30,2 Мбайт
Продолжительность : 29 с.
Режим общего битрейта : Переменный
Общий поток : 8474 Кбит/сек
Видео
Идентификатор : 224 (0xE0)
Формат : MPEG Video
Версия формата : Version 2
Профиль формата : Main@Main
Параметр BVOP формата : Да
Параметр матрицы формата : По умолчанию
Параметр GOP формата : M=3, N=15
Продолжительность : 29 с.
Вид битрейта : Переменный
Битрейт : 8081 Кбит/сек
Максимальный битрейт : 6750 Кбит/сек
Ширина : 720 пикселей
Высота : 576 пикселей
Соотношение сторон : 4:3
Частота кадров : 25,000 кадров/сек
Стандарт вещания : PAL
Цветовое пространство : YUV
Субдискретизация насыщенности : 4:2:0
Битовая глубина : 8 бит
Тип развёртки : Чересстрочная
Порядок развёртки : Нижнее поле первое
Метод сжатия : С потерями
Бит/(Пиксели*Кадры) : 0.779
Временной код первого кадра : 00:00:00:00
Оригинал временного кода : Group of pictures header
Размер потока : 28,8 Мбайт (95%)
Аудио
Идентификатор : 192 (0xC0)
Формат : MPEG Audio
Версия формата : Version 1
Профиль формата : Layer 2
Продолжительность : 29 с.
Вид битрейта : Постоянный
Битрейт : 224 Кбит/сек
Каналы : 2 канала
Частота : 48,0 КГц
Метод сжатия : С потерями
Размер потока : 805 Кбайт (3%)
Текст
Идентификатор : 189 (0xBD)-32 (0x20)
Формат : RLE
Формат/Информация : Run-length encoding
Режим смешивания : DVD-Video
Меню
Общее
Полное имя : Почему мы православные. Трилогия\VIDEO_TS\VTS_01_1.VOB
Формат : MPEG-PS
Размер файла : 1024 Мбайт
Продолжительность : 30 м.
Режим общего битрейта : Переменный
Общий поток : 4723 Кбит/сек
Видео
Идентификатор : 224 (0xE0)
Формат : MPEG Video
Версия формата : Version 2
Профиль формата : Main@Main
Параметр BVOP формата : Да
Параметр матрицы формата : По умолчанию
Параметр GOP формата : M=3, N=15
Продолжительность : 30 м.
Вид битрейта : Переменный
Битрейт : 4405 Кбит/сек
Максимальный битрейт : 6750 Кбит/сек
Ширина : 720 пикселей
Высота : 576 пикселей
Соотношение сторон : 4:3
Частота кадров : 25,000 кадров/сек
Стандарт вещания : PAL
Цветовое пространство : YUV
Субдискретизация насыщенности : 4:2:0
Битовая глубина : 8 бит
Тип развёртки : Чересстрочная
Порядок развёртки : Нижнее поле первое
Метод сжатия : С потерями
Бит/(Пиксели*Кадры) : 0.425
Временной код первого кадра : 00:00:00:00
Оригинал временного кода : Group of pictures header
Размер потока : 955 Мбайт (93%)
Аудио
Идентификатор : 192 (0xC0)
Формат : MPEG Audio
Версия формата : Version 1
Профиль формата : Layer 2
Продолжительность : 30 м.
Вид битрейта : Постоянный
Битрейт : 224 Кбит/сек
Каналы : 2 канала
Частота : 48,0 КГц
Метод сжатия : С потерями
Размер потока : 48,6 Мбайт (5%)
Меню
Общее
Полное имя : Почему мы православные. Трилогия\VIDEO_TS\VTS_01_2.VOB
Формат : MPEG-PS
Размер файла : 1024 Мбайт
Продолжительность : 29 м.
Режим общего битрейта : Переменный
Общий поток : 4793 Кбит/сек
Видео
Идентификатор : 224 (0xE0)
Формат : MPEG Video
Версия формата : Version 2
Профиль формата : Main@Main
Параметр BVOP формата : Да
Параметр матрицы формата : По умолчанию
Параметр GOP формата : M=3, N=15
Продолжительность : 29 м.
Вид битрейта : Переменный
Битрейт : 4474 Кбит/сек
Максимальный битрейт : 6750 Кбит/сек
Ширина : 720 пикселей
Высота : 576 пикселей
Соотношение сторон : 4:3
Частота кадров : 25,000 кадров/сек
Стандарт вещания : PAL
Цветовое пространство : YUV
Субдискретизация насыщенности : 4:2:0
Битовая глубина : 8 бит
Тип развёртки : Чересстрочная
Порядок развёртки : Нижнее поле первое
Метод сжатия : С потерями
Бит/(Пиксели*Кадры) : 0.432
Временной код первого кадра : 00:30:19:03
Оригинал временного кода : Group of pictures header
Размер потока : 955 Мбайт (93%)
Аудио
Идентификатор : 192 (0xC0)
Формат : MPEG Audio
Версия формата : Version 1
Профиль формата : Layer 2
Продолжительность : 29 м.
Вид битрейта : Постоянный
Битрейт : 224 Кбит/сек
Каналы : 2 канала
Частота : 48,0 КГц
Метод сжатия : С потерями
Задержка видео : -912 мс.
Размер потока : 47,9 Мбайт (5%)
Меню
Общее
Полное имя : Почему мы православные. Трилогия\VIDEO_TS\VTS_01_3.VOB
Формат : MPEG-PS
Размер файла : 672 Мбайт
Режим общего битрейта : Переменный
Видео
Идентификатор : 224 (0xE0)
Формат : MPEG Video
Версия формата : Version 2
Профиль формата : Main@Main
Параметр BVOP формата : Да
Параметр матрицы формата : По умолчанию
Параметр GOP формата : M=3, N=15
Вид битрейта : Переменный
Максимальный битрейт : 6750 Кбит/сек
Ширина : 720 пикселей
Высота : 576 пикселей
Соотношение сторон : 4:3
Частота кадров : 25,000 кадров/сек
Стандарт вещания : PAL
Цветовое пространство : YUV
Субдискретизация насыщенности : 4:2:0
Битовая глубина : 8 бит
Тип развёртки : Чересстрочная
Порядок развёртки : Нижнее поле первое
Метод сжатия : С потерями
Временной код первого кадра : 01:00:10:18
Оригинал временного кода : Group of pictures header
Аудио
Идентификатор : 192 (0xC0)
Формат : MPEG Audio
Версия формата : Version 1
Профиль формата : Layer 2
Вид битрейта : Постоянный
Битрейт : 224 Кбит/сек
Каналы : 2 канала
Частота : 48,0 КГц
Метод сжатия : С потерями
Задержка видео : -432 мс.
Меню
Скриншоты меню
Скриншоты
Скриншоты с учётом Анаморфирования